flare CF-RAY: 3ff1420b68e38f93-DME HDSector.to : Bollywood / Hindi / Hollywood HD Movies
[Login] or [Signup]
[Recover Account]


You must be logged in to view polls

Torrent Details For "Marigold (2007) 720p Untouched Web-HD AVC AAC Esub - Hon3yHD [Exclsuive]"

Marigold (2007) 720p Untouched Web-HD AVC AAC Esub - Hon3yHD [Exclsuive]

Download this torrent | Magnet Download
Seeds: 0
Leechers: 4
Last Checked: 20-09-2017 13:47:54
External Torrent
Update Stats
Download Magnet


Imdb Picture Title: Marigold
Year: 2007
Runtime: 110 minutes
Votes: 1578
Rating: 4.9/10
Language: English
Country: USA, India
All Genres: Comedy
Plot Outline: Ali Larter plays an American actress who becomes immersed in the Bollywood film world.
Director: Willard Carroll
Writing By: Willard Carroll,
Produced By: Reiko Bradley,Michael Hamilton-Wright,Andrew Herwitz,Siddharth M. Jain,Michele L. Jennings,Susan B. Landau,Christian Mills,Praveen Nischol,Charles Salmon,Sandeep Shandilya,Glen Tedham,Thomas L. Wilhite,
Music: Shankar Mahadevan Loy Mendonsa Ehsaan Noorani Graeme Revell

Born in America, Marigold was the only child in the Lexton family. Her mom died when she was very young. She took an interest in acting and movies, much to the chagrin of her dad, who refused to do anything with her. She started acting in small budget movies as well sequels to popular releases such as Fatal Attraction, Basic Instinct amongst others. She landed a part in Kama Sutra 3 and had an eventful journey to Mumbai, India, and from there by taxi to Goa. It is here she found out that the movie has been canceled, and she has no money to return home as she was provided with a one-way ticket. She lands a singing/dancing role in Manoj Sharma's film, meets with Dance Instructor, Prem Rajput, who tells her that his grandma had predicted that he would meet and then get married to a woman named Marigold. She becomes attracted to him, even accompanies him to Jodhpur, Rajasthan, to his family home on the occasion of his sister, Pooja's marriage. It is here she will find out that Prem belongs to a royal family, and his marriage had already been finalized with a woman named Jhanvi, and no one in this family has ever dared to go against arranged marriages and tradition.

- Written by rAjOo ([email protected])

The film follows the story of Marigold Lexton, an American actress who gets stranded in Mumbai and lands a minor role in a Bollywood musical. She meets Prem, the film's choreographer, and undergoes a personal transformation as she experiences Bollywood firsthand.

- Written by hEmRaJ ([email protected])

Ali Larter plays an American actress who becomes immersed in the Bollywood film world.

- Written by Anonymous
Salman Khan as Prem Rajput
Ali Larter as Marigold Lexton
Nandana Sen as Jaanvi
Ian Bohen as Barry
Shari Watson as Doreen
Helen as Prem's grandma
Vikas Bhalla as Raj Sondi
Suchitra Pillai as Rani
Vijayendra Ghatge as Rajput
Roopak Saluja as Mani

Watch-Free-HD     Download

Name:Marigold (2007) 720p Untouched Web-HD AVC AAC Esub - Hon3yHD [Exclsuive]
Marigold (2007) 720p Untouched Web-HD AVC AAC Esub - Hon3yHD [Exclsuive]

Format                      : Matroska
File size                   : 1.63 GiB
Duration                    : 1 h 46 min
Overall bit rate            : 2 187 kb/s

ID                          : 1
Format                      : AVC
Format/Info                 : Advanced Video Codec
Format profile              : [email protected]
Format settings, CABAC      : Yes
Format settings, ReFrames   : 4 frames
Codec ID                    : V_MPEG4/ISO/AVC
Duration                    : 1 h 46 min
Bit rate                    : 2 054 kb/s
Nominal bit rate            : 2 500 kb/s
Width                       : 1 280 pixels
Height                      : 720 pixels
Display aspect ratio        : 16:9
Frame rate mode             : Constant
Frame rate                  : 25.000 FPS
Stream size                 : 1.53 GiB (94%)

ID                          : 2
Format                      : AAC
Format/Info                 : Advanced Audio Codec
Format profile              : LC
Codec ID                    : A_AAC
Duration                    : 1 h 46 min
Bit rate                    : 132 kb/s
Channel(s)                  : 2 channels
Channel positions           : Front: L R
Sampling rate               : 44.1 kHz
Frame rate                  : 43.066 FPS (1024 spf)
Stream size                 : 100 MiB (6%)


Category:Movies > Bollywood
Total Size:1.63 GB
Info Hash:5872c64af01063b56169694c027372e1c4f86a34
Added By:Hon3y
Date Added:13-04-2017 14:02:18

Download Torrent

Ratings:Not Yet Rated (Log in to rate it)


File List: 


No comments still posted

Powered by 10 Hamsters v2-svn -|- Page Generated In 1.971197 secs.
-|- RSS Feed -|- Feed Info
Theme By: Nikkbu